<?xml version="1.0" standalone="no"?>
<!DOCTYPE svg PUBLIC "-//W3C//DTD SVG 1.1//EN" "http://www.w3.org/Graphics/SVG/1.1/DTD/svg11.dtd" >
<svg xmlns="http://www.w3.org/2000/svg">
<metadata>Generated by IcoMoon</metadata>
<defs>
<font id="mijnggz" horiz-adv-x="1024">
<font-face units-per-em="1024" ascent="960" descent="-64" />
<missing-glyph horiz-adv-x="1024" />
<glyph unicode="&#x20;" horiz-adv-x="512" d="" />
<glyph unicode="&#xe900;" glyph-name="add" d="M597.333 533.333v426.667h-170.667v-426.667h-426.667v-170.667h426.667v-426.667h170.667v426.667h426.667v170.667h-426.667z" />
<glyph unicode="&#xe901;" glyph-name="application" horiz-adv-x="1003" d="M957.862 27.225h-410.512v49.718s0 0 0 0h377.215c3.563-0.538 7.675-0.845 11.859-0.845 46.189 0 83.632 37.443 83.632 83.632 0 42.005-30.967 76.777-71.317 82.731l-0.455 0.055v115.856c0.003 0.574 0.004 1.254 0.004 1.935 0 231.554-174.286 422.402-398.833 448.517l-2.105 0.199v59.752h54.279c25.191 0 45.612 20.421 45.612 45.612s-20.421 45.612-45.612 45.612v0h-201.607c-25.191 0-45.612-20.421-45.612-45.612s20.421-45.612 45.612-45.612v0h56.103v-59.752c-226.652-26.315-400.938-217.162-400.938-448.717 0-0.68 0.002-1.36 0.005-2.040v0.105-109.014c-32.393-11.479-55.18-41.848-55.191-77.54v-10.948c-0.008-0.41-0.012-0.895-0.012-1.38 0-44.111 35.377-79.96 79.306-80.722l0.071-0.001h377.215s0 0 0 0v-49.718h-410.512c-25.191 0-45.612-20.421-45.612-45.612s20.421-45.612 45.612-45.612v0h912.249c25.191 0 45.612 20.421 45.612 45.612s-20.421 45.612-45.612 45.612v0zM104.453 169.992c1.708 1.135 3.199 2.336 4.571 3.658l-0.010-0.009c21.419 4.022 37.408 22.578 37.408 44.869 0 0.262-0.002 0.523-0.007 0.783l0.001-0.039v139.118c-0.007 0.818-0.011 1.786-0.011 2.755 0 196.974 158.649 356.894 355.137 358.95l0.195 0.002c196.683-2.057 355.332-161.977 355.332-358.952 0-0.969-0.004-1.936-0.011-2.903l0.001 0.148v-140.486c0.059-19.231 12.010-35.657 28.883-42.312l0.309-0.107c0.847-2.093 1.921-3.9 3.225-5.514l-0.032 0.041z" />
<glyph unicode="&#xe902;" glyph-name="arrow-left" horiz-adv-x="1550" d="M1453.169 544.394h-1072.439l258.664 248.008c18.897 17.723 30.669 42.848 30.669 70.723 0 53.504-43.374 96.878-96.878 96.878-0.224 0-0.448-0.001-0.671-0.002h0.034c-25.986-0.107-49.541-10.428-66.875-27.154l0.029 0.028-505.703-484.39 505.703-484.39c17.359-16.545 40.914-26.725 66.846-26.725 53.55 0 96.961 43.411 96.961 96.961 0 27.618-11.547 52.54-30.077 70.2l-0.039 0.037-258.664 246.070h1072.439c53.504 0 96.878 43.374 96.878 96.878s-43.374 96.878-96.878 96.878v0z" />
<glyph unicode="&#xe903;" glyph-name="arrow-right" horiz-adv-x="1550" d="M96.878 350.638h1072.439l-258.664-248.008c-18.897-17.723-30.669-42.848-30.669-70.723 0-53.504 43.374-96.878 96.878-96.878 0.224 0 0.448 0.001 0.671 0.002h-0.034c25.986 0.107 49.541 10.428 66.875 27.154l-0.029-0.028 505.703 484.39-505.703 484.39c-16.151 12.5-36.694 20.036-58.998 20.036-53.504 0-96.878-43.374-96.878-96.878 0-23.515 8.378-45.074 22.312-61.853l-0.128 0.159 258.664-248.008h-1072.439c-53.504 0-96.878-43.374-96.878-96.878s43.374-96.878 96.878-96.878v0z" />
<glyph unicode="&#xe904;" glyph-name="attributes" horiz-adv-x="854" d="M850.764 726.448c-2.257 6.353-5.658 11.798-9.994 16.344l0.017-0.018-205.435 204.074c-8.149 7.885-19.266 12.744-31.519 12.744-0.717 0-1.431-0.017-2.14-0.050l0.1 0.004h-511.093c-50.092 0-90.7-40.608-90.7-90.7v0-842.147c0-50.092 40.608-90.7 90.7-90.7v0h672.992c50.092 0 90.7 40.608 90.7 90.7v0 680.248c0.019 0.494 0.030 1.074 0.030 1.656 0 6.448-1.346 12.582-3.772 18.136l0.114-0.292zM603.607 850.707l144.213-144.213h-144.213zM763.692 26.7h-672.992v842.601h422.207v-162.806c0-50.092 40.608-90.7 90.7-90.7v0h160.085zM247.61 498.338c-25.046 0-45.35-20.304-45.35-45.35s20.304-45.35 45.35-45.35v0h346.926c25.046 0 45.35 20.304 45.35 45.35s-20.304 45.35-45.35 45.35v0zM594.537 271.589h-346.926c-25.046 0-45.35-20.304-45.35-45.35s20.304-45.35 45.35-45.35v0h346.926c25.046 0 45.35 20.304 45.35 45.35s-20.304 45.35-45.35 45.35v0zM247.61 615.795h120.177c25.046 0 45.35 20.304 45.35 45.35s-20.304 45.35-45.35 45.35v0h-120.177c-25.046 0-45.35-20.304-45.35-45.35s20.304-45.35 45.35-45.35v0z" />
<glyph unicode="&#xe905;" glyph-name="calender" horiz-adv-x="1015" d="M922.938 858.477h-129.211v55.376c0 25.486-20.661 46.147-46.147 46.147s-46.147-20.661-46.147-46.147v0-55.376h-387.634v55.376c0 25.486-20.661 46.147-46.147 46.147s-46.147-20.661-46.147-46.147v0-55.376h-129.211c-50.972 0-92.294-41.321-92.294-92.294v0-738.351c0-50.972 41.321-92.294 92.294-92.294v0h830.644c50.972 0 92.294 41.321 92.294 92.294v0 738.351c0 50.972-41.321 92.294-92.294 92.294v0zM922.938 27.832h-830.644v738.351h129.211v-31.38c0-25.486 20.661-46.147 46.147-46.147s46.147 20.661 46.147 46.147v0 31.38h387.634v-31.38c0-25.486 20.661-46.147 46.147-46.147s46.147 20.661 46.147 46.147v0 31.38h129.211zM198.432 624.512h46.147v-46.147h-46.147v46.147zM341.487 624.512h46.147v-46.147h-46.147v46.147zM484.543 624.512h46.147v-46.147h-46.147v46.147zM627.598 624.512h46.147v-46.147h-46.147v46.147zM770.653 624.512h46.147v-46.147h-46.147v46.147zM198.432 473.15h46.147v-46.147h-46.147v46.147zM318.414 496.224h92.294v-92.294h-92.294v92.294zM484.543 473.15h46.147v-46.147h-46.147v46.147zM627.598 473.15h46.147v-46.147h-46.147v46.147zM770.653 473.15h46.147v-46.147h-46.147v46.147zM198.432 321.327h46.147v-46.147h-46.147v46.147zM341.487 321.327h46.147v-46.147h-46.147v46.147zM484.543 321.327h46.147v-46.147h-46.147v46.147zM627.598 321.327h46.147v-46.147h-46.147v46.147zM770.653 321.327h46.147v-46.147h-46.147v46.147zM198.432 169.965h46.147v-46.147h-46.147v46.147zM341.487 169.965h46.147v-46.147h-46.147v46.147zM484.543 169.965h46.147v-46.147h-46.147v46.147zM627.598 169.965h46.147v-46.147h-46.147v46.147zM770.653 169.965h46.147v-46.147h-46.147v46.147z" />
<glyph unicode="&#xe906;" glyph-name="checkmark" horiz-adv-x="1252" d="M1206.275 918.507c-26.859 27.074-64.080 43.835-105.216 43.835s-78.356-16.76-105.206-43.825l-0.010-0.010-527.56-551.271-213.395 232.66c-27.134 28.271-65.235 45.838-107.438 45.838-82.197 0-148.831-66.634-148.831-148.831 0-39.993 15.774-76.302 41.441-103.044l-0.049 0.051 428.272-465.32 740.955 773.557c28.036 27.002 45.449 64.864 45.449 106.792 0 43.356-18.619 82.364-48.297 109.463l-0.115 0.104z" />
<glyph unicode="&#xe907;" glyph-name="close" d="M1024 846.58l-114.225 113.42-398.178-398.178-398.178 398.178-113.42-113.42 398.178-398.178-398.178-398.178 113.42-114.225 398.178 398.178 398.178-398.178 114.225 114.225-398.178 398.178 398.178 398.178z" />
<glyph unicode="&#xe908;" glyph-name="download" horiz-adv-x="956" d="M434.899 255.849v0l42.767-42.767 42.767 42.767 174.080 175.285c9.002 10.464 14.484 24.182 14.484 39.18 0 33.267-26.968 60.235-60.235 60.235-14.998 0-28.716-5.482-39.26-14.551l0.079 0.067-71.68-71.68v455.379c0 33.267-26.968 60.235-60.235 60.235s-60.235-26.968-60.235-60.235v0-455.379l-71.68 71.68c-10.464 9.002-24.182 14.484-39.18 14.484-33.267 0-60.235-26.968-60.235-60.235 0-14.998 5.482-28.716 14.551-39.26l-0.067 0.079zM895.096 381.741c-33.267 0-60.235-26.968-60.235-60.235v0-265.035h-714.391v265.035c0 33.267-26.968 60.235-60.235 60.235s-60.235-26.968-60.235-60.235v0-325.271c0-33.267 26.968-60.235 60.235-60.235v0h834.861c33.267 0 60.235 26.968 60.235 60.235v0 325.271c0 33.267-26.968 60.235-60.235 60.235v0z" />
<glyph unicode="&#xe909;" glyph-name="dragdrop" d="M983.798 488.489v0l-125.775 124.626c-10.518 14.912-27.673 24.532-47.075 24.532-31.718 0-57.431-25.713-57.431-57.431 0-18.967 9.195-35.787 23.37-46.245l0.157-0.111 26.993-26.993h-234.32v232.597l26.993-26.993c10.32-10.239 24.513-16.587 40.189-16.655h0.013c0.099-0.001 0.215-0.001 0.332-0.001 15.777 0 30.068 6.362 40.448 16.66l-0.004-0.004c10.321 10.381 16.701 24.69 16.701 40.489s-6.38 30.108-16.703 40.492l-165.399 166.548-40.776-40.776-124.626-125.775c-14.912-10.518-24.532-27.673-24.532-47.075 0-31.718 25.713-57.431 57.431-57.431 18.967 0 35.787 9.195 46.245 23.37l0.111 0.157 26.993 26.993v-234.32h-232.597l26.993 28.716c14.333 10.569 23.528 27.389 23.528 46.356 0 31.718-25.713 57.431-57.431 57.431-19.402 0-36.556-9.621-46.954-24.352l-0.121-0.181-125.775-124.626-40.776-40.776 40.776-40.776 125.775-124.626c10.381-10.321 24.69-16.701 40.489-16.701s30.108 6.38 40.492 16.703l-0.003-0.003c10.321 10.381 16.701 24.69 16.701 40.489s-6.38 30.108-16.703 40.492l-26.99 26.99h234.32v-234.32l-28.716 26.993c-10.596 12.32-26.203 20.075-43.622 20.075-31.718 0-57.431-25.713-57.431-57.431 0-17.418 7.754-33.026 19.999-43.558l0.076-0.064 124.626-125.775 40.776-40.776 40.776 40.776 124.626 125.775c16.711 10.241 27.692 28.404 27.692 49.132 0 31.718-25.713 57.431-57.431 57.431-19.85 0-37.347-10.070-47.663-25.38l-0.13-0.205-26.993-26.993v234.32h234.32l-26.993-26.993c-10.321-10.381-16.701-24.69-16.701-40.489s6.38-30.108 16.703-40.492l-0.003 0.003c10.381-10.321 24.69-16.701 40.489-16.701s30.108 6.38 40.492 16.703l-0.003-0.003 125.775 124.626 40.776 40.776z" />
<glyph unicode="&#xe90a;" glyph-name="dropdown" horiz-adv-x="1566" d="M1521.922 918.507c-26.859 27.074-64.080 43.835-105.216 43.835s-78.356-16.76-105.206-43.825l-0.010-0.010-527.56-555.716-527.56 551.271c-27.134 28.271-65.235 45.838-107.438 45.838-82.197 0-148.831-66.634-148.831-148.831 0-39.993 15.774-76.302 41.441-103.044l-0.049 0.051 740.955-773.557 740.955 773.557c26.635 26.786 43.099 63.711 43.099 104.481 0 41.504-17.062 79.022-44.554 105.925l-0.027 0.026z" />
<glyph unicode="&#xe90b;" glyph-name="duplicate" horiz-adv-x="817" d="M725.178 657.455h-136.844v210.385c0 51.413-41.678 93.091-93.091 93.091v0h-403.084c-51.413 0-93.091-41.678-93.091-93.091v0-539.462c0-51.413 41.678-93.091 93.091-93.091v0h386.327l-54.458-54.458c-6.956-8.086-11.192-18.686-11.192-30.276 0-25.706 20.839-46.545 46.545-46.545 11.59 0 22.19 4.236 30.337 11.244l-0.061-0.052 167.098 166.633-33.047 33.047-134.051 133.585c-8.436 8.504-20.127 13.768-33.047 13.768s-24.611-5.264-33.044-13.765l-0.003-0.003c-8.365-8.413-13.535-20.010-13.535-32.815s5.17-24.401 13.537-32.817l-0.002 0.002 54.924-53.527h-385.396l-0.931 537.6h403.084v-209.455h-174.080c-51.413 0-93.091-41.678-93.091-93.091v0-105.193c0-25.706 20.839-46.545 46.545-46.545s46.545 20.839 46.545 46.545v0 104.262h403.084v-538.531h-403.084v76.8c0 25.706-20.839 46.545-46.545 46.545s-46.545-20.839-46.545-46.545v0-73.542c0-51.413 41.678-93.091 93.091-93.091v0h404.015c51.413 0 93.091 41.678 93.091 93.091v0 539.462c-1.806 49.992-42.767 89.833-93.034 89.833-0.020 0-0.040 0-0.060 0h0.003z" />
<glyph unicode="&#xe90c;" glyph-name="edit" horiz-adv-x="820" d="M747.314 869.377l-79.678 57.351c-28.629 21.218-64.648 33.965-103.644 33.965-58.729 0-110.706-28.91-142.475-73.276l-0.359-0.528-12.258-16.636-114.702 81.43-256.109-345.857c-5.467-7.226-8.758-16.364-8.758-26.27 0-24.179 19.601-43.779 43.779-43.779 0.155 0 0.309 0.001 0.463 0.002h-0.023c0.034 0 0.074 0 0.114 0 14.465 0 27.292 7.015 35.263 17.829l0.085 0.12 204.012 277.999 43.779-32.397-140.97-197.883 31.959-23.203-193.067-262.676c-7.739-10.259-13.048-22.765-14.842-36.379l-0.043-0.395v-3.065l3.502-223.713-34.586-45.968c-5.371-7.186-8.6-16.245-8.6-26.058 0-14.397 6.949-27.171 17.677-35.15l0.117-0.083c7.186-5.371 16.245-8.6 26.058-8.6 14.397 0 27.171 6.949 35.15 17.677l0.083 0.117 34.586 46.844 207.514 68.734h5.691c11.839 5.879 21.674 14.174 29.179 24.3l0.153 0.216 194.381 262.676 30.646-22.327 205.763 284.566c22.401 29.119 35.901 66.098 35.901 106.23 0 59.56-29.734 112.175-75.167 143.811l-0.573 0.378zM288.506 150.957l-158.919-52.535-3.94 168.113 192.192 262.676 160.67-116.015zM716.231 676.31l-152.79-215.395-225.464 161.546 154.103 213.206c16.025 22.836 42.237 37.579 71.893 37.579 19.769 0 38.007-6.551 52.663-17.602l-0.223 0.161 78.365-57.351c23.213-15.982 38.236-42.409 38.236-72.345 0-19.38-6.296-37.289-16.955-51.794l0.171 0.243z" />
<glyph unicode="&#xe90d;" glyph-name="education-third-parties" horiz-adv-x="801" d="M753.906 558.225v262.521c0 2.104 0 3.786 0 5.89-0.83 20.948-12.325 39.037-29.175 49.071l-0.274 0.151-127.895 76.989c-7.52 4.241-16.512 6.74-26.086 6.74-20.171 0-37.751-11.090-46.977-27.505l-0.14-0.271-92.555-159.869c-10.097 0-20.194 0-30.291 0s-21.035 0-31.132 0l-92.135 159.869c-6.708 12.826-18.187 22.385-32.023 26.412l-0.372 0.093c-4.196 1.146-9.013 1.804-13.984 1.804-10.362 0-20.056-2.86-28.336-7.833l0.249 0.139-126.212-76.148c-16.849-10.495-28.036-28.702-28.606-49.561l-0.002-0.082s0-3.786 0-5.89v-267.569c-29.695-59.852-47.084-130.334-47.119-204.873v-307.127c0-58.087 47.089-105.177 105.177-105.177v0h588.989c58.087 0 105.177 47.089 105.177 105.177v0 304.592c0.062 2.849 0.098 6.205 0.098 9.571 0 73.793-17.116 143.589-47.595 205.633l1.219-2.747zM580.996 864.079l79.514-48.381-55.954-97.183c-24.178 14.859-52.058 27.581-81.51 36.738l-2.632 0.705zM220.030 864.079l61.844-108.963c-32.109-9.983-59.979-22.698-85.835-38.398l1.694 0.955-57.216 98.025zM560.381 20.141h-319.737v129.157h60.582c-5.358-15.513-10.731-35.267-14.96-55.441l-0.606-3.458c-0.134-1.084-0.21-2.34-0.21-3.613 0-17.194 13.938-31.132 31.132-31.132s31.132 13.938 31.132 31.132c0 1.273-0.076 2.528-0.225 3.762l0.015-0.149c-4.477 22.945-9.712 42.432-16.12 61.378l0.975-3.321h228.023zM560.381 233.44h-319.737v59.32h319.737zM716.043 41.177c0-11.617-9.418-21.035-21.035-21.035v0h-50.485v294.495c-0.237 34.757-28.349 62.869-63.083 63.106h-361.831c-34.757-0.237-62.869-28.349-63.106-63.083v-294.518h-51.326c-11.523 0.231-20.804 9.512-21.035 21.014v154.842l0.841 151.454c-0.196 4.346-0.308 9.443-0.308 14.567 0 94.752 38.199 180.582 100.038 242.929l-0.023-0.023c55.105 52.123 129.672 84.169 211.724 84.169 1.441 0 2.88-0.010 4.316-0.030l-0.218 0.002c152.296 0 316.371-107.701 316.371-343.717z" />
<glyph unicode="&#xe90e;" glyph-name="events" horiz-adv-x="1015" d="M922.938 858.477h-129.211v55.376c0 25.486-20.661 46.147-46.147 46.147s-46.147-20.661-46.147-46.147v0-55.376h-387.634v55.376c0 25.486-20.661 46.147-46.147 46.147s-46.147-20.661-46.147-46.147v0-55.376h-129.211c-50.972 0-92.294-41.321-92.294-92.294v0-738.351c0-50.972 41.321-92.294 92.294-92.294v0h830.644c50.972 0 92.294 41.321 92.294 92.294v0 738.351c0 50.972-41.321 92.294-92.294 92.294v0zM922.938 27.832h-830.644v473.467h830.644zM922.938 593.594h-830.644v172.589h129.211v-31.38c0-25.486 20.661-46.147 46.147-46.147s46.147 20.661 46.147 46.147v0 31.38h387.634v-31.38c0-25.486 20.661-46.147 46.147-46.147s46.147 20.661 46.147 46.147v0 31.38h129.211z" />
<glyph unicode="&#xe90f;" glyph-name="export" horiz-adv-x="1609" d="M1581.349 494.811l-571.977 449.829c-12.254 9.592-27.887 15.382-44.873 15.382-11.617 0-22.601-2.708-32.355-7.527l0.428 0.191c-24.454-12.179-40.96-37.003-40.96-65.682 0-0.051 0-0.103 0-0.154v0.008-172.617c-157.369-9.371-303.213-49.936-434.334-115.563l6.448 2.923c-247.223-121.417-386.194-374.491-458.606-566.126-3.040-7.736-4.802-16.695-4.802-26.066 0-40.396 32.747-73.143 73.143-73.143 18.050 0 34.573 6.538 47.33 17.376l-0.105-0.087c185.139 150.671 423.868 241.932 683.912 241.932 30.626 0 60.957-1.266 90.942-3.748l-3.929 0.262v-182.857c0.089-28.306 16.242-52.818 39.817-64.905l0.412-0.192c9.057-4.323 19.684-6.848 30.901-6.848 15.834 0 30.492 5.031 42.464 13.582l-0.222-0.151 571.246 428.617c17.47 13.195 28.773 33.755 29.256 56.974l0.001 0.077c0.074 1.229 0.116 2.665 0.116 4.112 0 21.569-9.336 40.957-24.187 54.345l-0.065 0.058zM1037.897 155.429v99.474c0.006 0.355 0.010 0.773 0.010 1.193 0 35.745-25.641 65.501-59.533 71.879l-0.454 0.071c-50.857 9.314-109.384 14.641-169.156 14.641-1.731 0-3.461-0.004-5.189-0.013l0.265 0.001c-199.344-0.789-387.677-47.129-555.384-129.137l7.544 3.332c67.143 107.254 159.17 193.187 268.29 251.229l3.801 1.845c128.106 64.091 279.094 101.626 438.843 101.669h0.014c40.396 0 73.143 32.747 73.143 73.143v0 91.429l378.149-297.691z" />
<glyph unicode="&#xe910;" glyph-name="file" horiz-adv-x="854" d="M850.764 726.448c-2.257 6.353-5.658 11.798-9.994 16.344l0.017-0.018-204.981 204.074c-8.151 7.897-19.278 12.765-31.541 12.765-0.869 0-1.733-0.024-2.59-0.073l0.119 0.005h-511.093c-50.092 0-90.7-40.608-90.7-90.7v0-842.147c0-50.092 40.608-90.7 90.7-90.7v0h672.992c50.092 0 90.7 40.608 90.7 90.7v0 680.248c0.019 0.494 0.030 1.074 0.030 1.656 0 6.448-1.346 12.582-3.772 18.136l0.114-0.292zM603.607 850.253l144.213-143.759h-144.213zM763.692 26.7h-672.992v842.601h422.207v-162.806c0-50.092 40.608-90.7 90.7-90.7v0h160.085z" />
<glyph unicode="&#xe911;" glyph-name="free" horiz-adv-x="1074" d="M1071.538 573.393c-5.734 17.303-20.479 30.105-38.532 32.95l-0.275 0.036-312.39 45.597-139.703 282.801c-8.039 16.327-24.559 27.364-43.657 27.364s-35.618-11.036-43.53-27.079l-0.127-0.284-139.703-282.801-312.39-45.597c-23.42-3.714-41.111-23.761-41.111-47.941 0-13.506 5.52-25.723 14.427-34.518l0.005-0.005 226.046-220.225-53.359-311.42c-0.545-2.728-0.856-5.865-0.856-9.074 0-16.188 7.93-30.525 20.117-39.336l0.142-0.098c7.707-5.393 17.277-8.618 27.6-8.618 7.6 0 14.792 1.748 21.195 4.863l-0.288-0.126 279.405 145.523 279.405-145.523c6.522-3.481 14.265-5.526 22.485-5.526 26.79 0 48.508 21.718 48.508 48.508 0 2.808-0.239 5.561-0.697 8.238l0.041-0.287-53.359 311.42 226.046 220.225c10.261 8.942 16.709 22.034 16.709 36.631 0 5.104-0.788 10.025-2.25 14.646l0.094-0.344zM747.505 355.108c-9.079-8.825-14.713-21.154-14.713-34.798 0-2.786 0.235-5.517 0.686-8.175l-0.040 0.286 41.232-239.629-213.434 113.023c-6.601 3.584-14.454 5.692-22.799 5.692s-16.198-2.107-23.055-5.819l0.257 0.127-216.345-113.023 41.232 239.629c0.411 2.372 0.646 5.103 0.646 7.889 0 13.645-5.634 25.973-14.702 34.787l-0.011 0.011-173.658 169.777 240.114 34.926c15.998 2.377 29.263 12.276 36.254 25.921l0.127 0.274 107.687 217.8 107.687-217.8c7.118-13.918 20.383-23.817 36.115-26.162l0.266-0.033 242.539-34.926z" />
<glyph unicode="&#xe912;" glyph-name="fullscreen" d="M286.118 56.471h-165.647v165.647c0 33.267-26.968 60.235-60.235 60.235s-60.235-26.968-60.235-60.235v0-225.882c0-33.267 26.968-60.235 60.235-60.235v0h225.882c33.267 0 60.235 26.968 60.235 60.235s-26.968 60.235-60.235 60.235v0zM286.118 960h-225.882c-33.267 0-60.235-26.968-60.235-60.235v0-225.882c0-33.267 26.968-60.235 60.235-60.235s60.235 26.968 60.235 60.235v0 165.647h165.647c33.267 0 60.235 26.968 60.235 60.235s-26.968 60.235-60.235 60.235v0zM963.765 282.353c-33.267 0-60.235-26.968-60.235-60.235v0-165.647h-165.647c-33.267 0-60.235-26.968-60.235-60.235s26.968-60.235 60.235-60.235v0h225.882c33.267 0 60.235 26.968 60.235 60.235v0 225.882c0 33.267-26.968 60.235-60.235 60.235v0zM963.765 960h-225.882c-33.267 0-60.235-26.968-60.235-60.235s26.968-60.235 60.235-60.235v0h165.647v-165.647c0-33.267 26.968-60.235 60.235-60.235s60.235 26.968 60.235 60.235v0 225.882c0 33.267-26.968 60.235-60.235 60.235v0z" />
<glyph unicode="&#xe913;" glyph-name="image" horiz-adv-x="1164" d="M1119.232 960h-1072.64c-25.732 0-46.592-20.86-46.592-46.592v0-930.816c0-25.732 20.86-46.592 46.592-46.592v0h1072.64c25.732 0 46.592 20.86 46.592 46.592v930.816c0 25.732-20.86 46.592-46.592 46.592v0zM1073.152 140.8l-316.928 397.824-266.752-375.808-199.68 180.736-194.56-250.368v773.632h977.92zM472.064 633.344c0-51.747-41.949-93.696-93.696-93.696s-93.696 41.949-93.696 93.696c0 51.747 41.949 93.696 93.696 93.696s93.696-41.949 93.696-93.696z" />
<glyph unicode="&#xe914;" glyph-name="info" d="M603.885 708.5c-4.594 1.153-9.868 1.815-15.297 1.815-30.349 0-55.866-20.684-63.225-48.724l-0.102-0.455c-1.533-4.799-2.417-10.319-2.417-16.045 0-21.302 12.228-39.747 30.048-48.7l0.313-0.143c7.153-2.953 15.458-4.667 24.163-4.667 35.479 0 64.308 28.475 64.879 63.818l0.001 0.054c0.113 1.263 0.177 2.732 0.177 4.215 0 23.589-16.268 43.378-38.198 48.76l-0.344 0.071zM596.307 315.382c-9.946-9.473-18.945-20.366-28.892-30.313-9.271-9.637-19.005-18.621-29.249-27.003l-0.59-0.468c-3.026-2.041-6.754-3.258-10.767-3.258-2.075 0-4.074 0.325-5.948 0.928l0.137-0.038c-2.328 2.891-3.737 6.607-3.737 10.652 0 1.951 0.328 3.825 0.931 5.571l-0.036-0.12c8.525 26.997 17.998 53.521 27.471 79.571l44.048 120.777c2.495 7.959 4.646 17.564 6.041 27.412l0.117 1.006c1.44 4.329 2.271 9.313 2.271 14.491 0 26.158-21.205 47.364-47.364 47.364-2.979 0-5.894-0.275-8.721-0.801l0.293 0.045c-5.684 0-11.841 0-17.525 0-59.155-13.794-108.148-49.799-138.707-98.537l-0.542-0.926v-2.842c-1.371-1.958-2.191-4.389-2.191-7.012 0-3.851 1.768-7.29 4.537-9.548l0.022-0.018c6.157-4.736 10.894 0 15.156 3.315s17.998 21.314 27.471 31.26c9.747 10.047 20.103 19.352 31.066 27.916l0.667 0.502c2.575 1.19 5.587 1.884 8.762 1.884s6.188-0.694 8.895-1.939l-0.133 0.055c2.032-3.463 3.232-7.626 3.232-12.070 0-2.278-0.315-4.482-0.905-6.572l0.041 0.17c-2.996-10.622-6.545-19.741-10.846-28.422l0.426 0.951c-22.261-58.257-44.995-116.041-65.835-174.772-6.265-17.507-10.643-37.803-12.265-58.871l-0.050-0.807c-0.067-0.787-0.104-1.704-0.104-2.63 0-16.845 12.562-30.756 28.829-32.875l0.167-0.018c7.117-1.627 15.291-2.56 23.682-2.56s16.564 0.933 24.422 2.7l-0.74-0.14c59.601 17.353 108.853 54.307 141.51 103.274l0.581 0.926c2.207 2.745 3.728 6.132 4.25 9.838l0.012 0.108c-0.136 5.344-1.89 10.254-4.788 14.285l0.052-0.076s-12.788 0.474-15.156-2.368zM512 960c-282.77 0-512-229.23-512-512s229.23-512 512-512c282.77 0 512 229.23 512 512v0c-0.269 282.661-229.338 511.73-511.973 512h-0.027zM512 30.727c-230.453 0-417.273 186.819-417.273 417.273s186.819 417.273 417.273 417.273c230.453 0 417.273-186.819 417.273-417.273v0c-0.269-230.345-186.928-417.004-417.247-417.273h-0.026z" />
<glyph unicode="&#xe915;" glyph-name="learningproducts" horiz-adv-x="1133" d="M1106.5 736.977l-487.295 218.943c-5.487 2.365-11.876 3.74-18.585 3.74s-13.098-1.375-18.898-3.859l0.313 0.119-486.389-218.49c-4.921-2.177-9.126-5.076-12.695-8.615l0.003 0.003-2.72-3.173c-2.352-2.903-4.464-6.174-6.206-9.663l-0.14-0.31c-0.116-0.545-0.183-1.171-0.183-1.813s0.067-1.268 0.194-1.872l-0.010 0.059c-2.888-4.253-4.959-9.299-5.863-14.74l-0.030-0.219v-543.958c-40.36-17.937-67.995-57.673-67.995-103.864 0-62.587 50.737-113.324 113.324-113.324s113.324 50.737 113.324 113.324c0 46.191-27.635 85.927-67.274 103.577l-0.721 0.287v465.99l84.767-45.33v-302.803c0-0.028 0-0.061 0-0.094 0-17.417 9.823-32.539 24.23-40.13l0.248-0.119 311.869-163.187c6.16-3.389 13.493-5.399 21.293-5.44h0.012c0.041 0 0.089 0 0.138 0 7.613 0 14.755 2.018 20.92 5.549l-0.206-0.109 312.322 163.187c14.656 7.71 24.478 22.832 24.478 40.249 0 0.033 0 0.066 0 0.099v-0.005 301.443l151.402 83.407c14.168 7.851 23.601 22.715 23.601 39.782 0 18.313-10.86 34.090-26.491 41.242l-0.283 0.116zM112.871 26.206c-12.321 0.254-22.212 10.302-22.212 22.66 0 0.002 0 0.003 0 0.005v0c0 12.517 10.147 22.665 22.665 22.665s22.665-10.147 22.665-22.665v0c0-0.001 0-0.003 0-0.005 0-12.517-10.147-22.665-22.665-22.665-0.159 0-0.318 0.002-0.477 0.005h0.024zM867.612 298.185l-266.992-139.616-266.992 139.616v226.649l246.594-135.989c6.225-3.425 13.643-5.44 21.532-5.44 0.080 0 0.159 0 0.239 0.001h-0.012c0.067 0 0.147-0.001 0.227-0.001 7.889 0 15.306 2.015 21.767 5.559l-0.236-0.118 243.874 135.989zM601.98 479.504l-387.116 212.143 385.757 173.16 385.757-173.16z" />
<glyph unicode="&#xe916;" glyph-name="link" d="M366.313 114.735l-46.545-46.545c-23.933-23.585-56.811-38.149-93.091-38.149s-69.158 14.564-93.107 38.165l0.016-0.016c-23.476 23.982-37.962 56.845-37.962 93.091s14.486 69.109 37.985 93.115l-0.023-0.024 286.72 286.255c23.78 23.919 56.707 38.723 93.091 38.723s69.311-14.804 93.085-38.717l0.006-0.006c8.458-8.458 20.142-13.689 33.047-13.689 25.812 0 46.736 20.924 46.736 46.736 0 12.906-5.231 24.59-13.689 33.047v0c-40.906 40.755-97.336 65.952-159.651 65.952s-118.745-25.197-159.658-65.959l-287.179-285.782c-40.59-40.808-65.682-97.067-65.682-159.187 0-124.367 100.569-225.244 224.819-225.744h0.048c0.301-0.001 0.657-0.002 1.014-0.002 62.022 0 118.142 25.273 158.622 66.082l46.56 46.56c8.504 8.436 13.768 20.127 13.768 33.047s-5.264 24.611-13.765 33.044l-0.003 0.003c-8.389 8.227-19.892 13.305-32.582 13.305s-24.193-5.078-32.589-13.313l0.007 0.007zM957.905 893.905c-40.831 40.728-97.184 65.912-159.418 65.912s-118.587-25.184-159.423-65.916l-46.54-46.54c-6.956-8.086-11.192-18.686-11.192-30.276 0-25.706 20.839-46.545 46.545-46.545 11.59 0 22.19 4.236 30.337 11.244l-0.061-0.052 46.545 46.545c23.933 23.585 56.811 38.149 93.091 38.149s69.158-14.564 93.107-38.165l-0.016 0.016c23.476-23.982 37.962-56.845 37.962-93.091s-14.486-69.109-37.985-93.115l0.023 0.024-286.72-286.255c-23.78-23.919-56.707-38.723-93.091-38.723s-69.311 14.804-93.085 38.717l-0.006 0.006c-8.458 8.458-20.142 13.689-33.047 13.689-25.812 0-46.736-20.924-46.736-46.736 0-12.906 5.231-24.59 13.689-33.047v0c40.854-40.867 97.301-66.144 159.651-66.144s118.797 25.277 159.65 66.144l0.001 0.001 286.255 286.72c40.84 40.78 66.104 97.149 66.104 159.418s-25.264 118.638-66.102 159.415l-0.003 0.003z" />
<glyph unicode="&#xe917;" glyph-name="logout" d="M477.898 318.698c-8.654-8.585-14.011-20.481-14.011-33.629 0-26.158 21.205-47.364 47.364-47.364 0.097 0 0.194 0 0.29 0.001h-0.015c13.174 0.056 25.070 5.483 33.621 14.201l0.007 0.008 138.302 138.302c8.512 8.561 13.773 20.362 13.773 33.391s-5.261 24.83-13.775 33.394l-138.3 138.3c-8.585 8.653-20.481 14.010-33.628 14.010s-25.044-5.357-33.625-14.007l-0.003-0.003c-8.512-8.561-13.773-20.362-13.773-33.391s5.261-24.83 13.775-33.394l-0.002 0.002 57.784-56.836h-488.318c-26.158 0-47.364-21.205-47.364-47.364s21.205-47.364 47.364-47.364v0h488.318zM512 960c-0.405 0.001-0.884 0.002-1.364 0.002-198.13 0-369.878-112.958-454.356-277.988l-1.339-2.879c-3.255-6.269-5.163-13.687-5.163-21.55 0-26.263 21.291-47.554 47.554-47.554 18.399 0 34.358 10.45 42.266 25.738l0.125 0.265c70.302 136.63 210.338 228.466 371.823 228.466 230.192 0 416.799-186.607 416.799-416.799s-186.607-416.799-416.799-416.799c-143.376 0-269.843 72.393-344.842 182.621l-0.93 1.449c-8.324 14.334-23.602 23.818-41.096 23.818-26.158 0-47.364-21.205-47.364-47.364 0-11.198 3.886-21.488 10.383-29.595l-0.072 0.093c93.287-137.075 248.579-225.921 424.621-225.921 282.77 0 512 229.23 512 512 0 282.189-228.29 511.059-510.26 511.997h-0.089z" />
<glyph unicode="&#xe918;" glyph-name="members" horiz-adv-x="1155" d="M424.495 363.287c71.419 38.368 119.156 112.548 119.156 197.879 0 123.648-100.236 223.884-223.884 223.884s-223.884-100.236-223.884-223.884c0-85.331 47.738-159.511 117.964-197.293l1.193-0.586c-126.076-44.637-214.808-162.733-215.040-301.586v-79.155c0-25.706 20.839-46.545 46.545-46.545s46.545 20.839 46.545 46.545v0 79.127c5.649 120.945 105.078 216.862 226.909 216.862s221.26-95.917 226.89-216.356l0.019-0.506v-79.127c0-25.706 20.839-46.545 46.545-46.545s46.545 20.839 46.545 46.545v0 79.127c-0.304 138.99-89.236 257.129-213.267 300.926l-2.238 0.689zM321.629 429.382c-72.235 0-130.793 58.558-130.793 130.793s58.558 130.793 130.793 130.793c72.235 0 130.793-58.558 130.793-130.793v0c0-72.235-58.558-130.793-130.793-130.793v0zM940.218 539.229c71.419 38.368 119.156 112.548 119.156 197.879 0 123.648-100.236 223.884-223.884 223.884s-223.884-100.236-223.884-223.884c0-85.331 47.738-159.511 117.964-197.293l1.193-0.586c-63.212-22.358-115.62-62.149-152.966-113.585l-0.634-0.917c-6.712-8.011-10.789-18.429-10.789-29.799 0-25.706 20.839-46.545 46.545-46.545 16.375 0 30.775 8.456 39.072 21.24l0.11 0.181c41.69 56.914 108.276 93.457 183.398 93.457 124.5 0 225.557-100.371 226.667-224.61l0.001-0.105v-79.127c0-25.706 20.839-46.545 46.545-46.545s46.545 20.839 46.545 46.545v0 79.127c-0.648 138.507-89.255 256.151-212.804 299.992l-2.236 0.692zM833.629 605.324c-72.235 0-130.793 58.558-130.793 130.793s58.558 130.793 130.793 130.793c72.235 0 130.793-58.558 130.793-130.793v0c0-72.235-58.558-130.793-130.793-130.793v0z" />
<glyph unicode="&#xe919;" glyph-name="menu" horiz-adv-x="2341" d="M0 960h2340.571v-292.571h-2340.571v292.571zM0 228.571h2340.571v-292.571h-2340.571v292.571z" />
<glyph unicode="&#xe91a;" glyph-name="message" d="M512 960c-282.77 0-512-229.23-512-512s229.23-512 512-512c282.77 0 512 229.23 512 512v0c0 282.77-229.23 512-512 512v0zM512 29.091c-231.357 0-418.909 187.552-418.909 418.909s187.552 418.909 418.909 418.909c231.357 0 418.909-187.552 418.909-418.909v0c0-231.357-187.552-418.909-418.909-418.909v0zM511.069 372.131c25.706 0 46.545 20.839 46.545 46.545v0 244.829c0 25.706-20.839 46.545-46.545 46.545s-46.545-20.839-46.545-46.545v0-244.829c0-25.706 20.839-46.545 46.545-46.545v0zM558.545 232.495c0-25.706-20.839-46.545-46.545-46.545s-46.545 20.839-46.545 46.545c0 25.706 20.839 46.545 46.545 46.545s46.545-20.839 46.545-46.545z" />
<glyph unicode="&#xe91b;" glyph-name="moon" horiz-adv-x="971" d="M512.987 959.342c-2.123 0.243-4.584 0.382-7.077 0.382-22.74 0-42.784-11.541-54.595-29.085l-0.149-0.235c-6.614-10.087-10.55-22.447-10.55-35.727 0-10.969 2.685-21.311 7.434-30.404l-0.173 0.363c29.884-53.103 47.488-116.57 47.488-184.15 0-210.307-170.487-380.794-380.794-380.794-0.279 0-0.558 0-0.837 0.001h0.044c-13.811 0-27.622 0-40.776 0-2.123 0.243-4.584 0.382-7.077 0.382-22.74 0-42.784-11.541-54.595-29.085l-0.149-0.235c-5.539-9.433-8.811-20.776-8.811-32.884s3.272-23.451 8.979-33.194l-0.168 0.31c88.531-161.478 257.353-269.129 451.319-269.129 283.315 0 512.987 229.672 512.987 512.987 0 265.535-201.75 483.948-460.324 510.316l-2.175 0.18zM458.399 66.877c-0.156 0-0.341 0-0.526 0-101.898 0-194.431 40.093-262.686 105.364l0.142-0.135c245.885 41.553 430.833 252.92 430.833 507.483 0 42.086-5.055 82.991-14.591 122.142l0.724-3.519c134.875-60.972 227.033-194.337 227.033-349.226 0-210.849-170.778-381.811-381.558-382.109h-0.028z" />
<glyph unicode="&#xe91c;" glyph-name="options" horiz-adv-x="5120" d="M1024 448c0-282.77-229.23-512-512-512s-512 229.23-512 512c0 282.77 229.23 512 512 512s512-229.23 512-512zM3072 448c0-282.77-229.23-512-512-512s-512 229.23-512 512c0 282.77 229.23 512 512 512s512-229.23 512-512zM5120 448c0-282.77-229.23-512-512-512s-512 229.23-512 512c0 282.77 229.23 512 512 512s512-229.23 512-512z" />
<glyph unicode="&#xe91d;" glyph-name="partners" horiz-adv-x="1014" d="M921.692 754.002h-184.338c0 127.259-103.164 230.423-230.423 230.423s-230.423-103.164-230.423-230.423v0h-184.338c-50.904 0-92.169-41.266-92.169-92.169v0-599.1c0-50.904 41.266-92.169 92.169-92.169v0h96.317c12.518-20.781 34.961-34.467 60.601-34.467s48.083 13.685 60.424 34.15l0.177 0.317h394.484c12.518-20.781 34.961-34.467 60.601-34.467s48.083 13.685 60.424 34.15l0.177 0.317h96.317c50.904 0 92.169 41.266 92.169 92.169v0 599.1c0 50.904-41.266 92.169-92.169 92.169v0zM506.931 867.831c0.646 0.011 1.408 0.017 2.172 0.017 67.729 0 124.082-48.702 135.952-112.995l0.13-0.851h-276.508c12 65.145 68.354 113.846 136.082 113.846 0.764 0 1.526-0.006 2.286-0.019l-0.115 0.001zM898.65 661.833c-46.085-115.212-155.766-173.739-341.026-184.338v39.633c0 25.452-20.633 46.085-46.085 46.085v0h-4.608c-25.452 0-46.085-20.633-46.085-46.085v0-36.868c-184.338 8.756-295.863 67.284-341.026 184.338zM923.996 62.733h-831.827v463.611c76.040-85.717 198.625-132.263 368.677-138.254v-17.973c0-25.452 20.633-46.085 46.085-46.085v0h4.608c25.452 0 46.085 20.633 46.085 46.085v0 17.973c167.748 7.834 290.333 54.38 368.677 138.254z" />
<glyph unicode="&#xe91e;" glyph-name="password" horiz-adv-x="748" d="M612.174 684.41v0 38.289c0.142 3.067 0.223 6.662 0.223 10.276 0 131.058-106.243 237.301-237.301 237.301s-237.301-106.243-237.301-237.301c0-3.614 0.081-7.21 0.241-10.785l-0.018 0.508v-38.289c-0.53 0.007-1.155 0.012-1.781 0.012-75.241 0-136.237-60.995-136.237-136.237 0-0.004 0-0.008 0-0.012v0.001-478.609c1.496-73.937 61.669-133.33 135.768-133.565h476.406c73.937 1.496 133.33 61.669 133.565 135.768v476.406c0 0.008 0 0.017 0 0.026 0 74.302-59.482 134.711-133.425 136.208l-0.14 0.002zM226.17 722.699c-0.142 2.426-0.223 5.265-0.223 8.121 0 81.88 66.377 148.257 148.257 148.257s148.257-66.377 148.257-148.257c0-2.857-0.081-5.695-0.24-8.512l0.018 0.39v-38.289h-296.070zM658.922 69.565c0.035-0.665 0.056-1.443 0.056-2.226 0-24.589-19.933-44.522-44.522-44.522-0.020 0-0.039 0-0.059 0h-478.606c-0.682-0.037-1.481-0.059-2.285-0.059-24.589 0-44.522 19.933-44.522 44.522 0 0.804 0.021 1.602 0.063 2.395l-0.005-0.111v478.609c-0.001 0.132-0.002 0.289-0.002 0.445 0 25.818 20.93 46.748 46.748 46.748 0.001 0 0.001 0 0.002 0h476.382c24.843-1.22 44.524-21.659 44.524-46.695 0-0.175-0.001-0.35-0.003-0.525v0.027zM447.889 429.301l-114.866-122.435-33.837 33.837c-8.069 8.134-19.252 13.169-31.61 13.169s-23.541-5.035-31.608-13.167l-0.003-0.003c-8.001-8.047-12.947-19.14-12.947-31.388s4.946-23.34 12.949-31.39l98.836-98.836 178.087 189.663c8.688 8.145 14.101 19.695 14.101 32.508 0 24.589-19.933 44.522-44.522 44.522-13.923 0-26.354-6.391-34.518-16.4l-0.064-0.081z" />
<glyph unicode="&#xe91f;" glyph-name="remove" horiz-adv-x="903" d="M856.436 797.091h-213.178v65.629c-0.263 53.62-43.66 97.017-97.255 97.28h-189c-53.62-0.263-97.017-43.66-97.28-97.255v-65.654h-213.178c-25.706 0-46.545-20.839-46.545-46.545s20.839-46.545 46.545-46.545v0h55.855v-617.658c0-0.005 0-0.012 0-0.018 0-82.213 65.99-149.014 147.891-150.322l0.123-0.002h398.429c84.026 1.051 151.738 69.412 151.738 153.589 0 0.004 0 0.008 0 0.012v-0.001 614.4h55.855c25.706 0 46.545 20.839 46.545 46.545s-20.839 46.545-46.545 46.545v0zM352.815 862.72c0 2.314 1.876 4.189 4.189 4.189v0h188.975c2.314 0 4.189-1.876 4.189-4.189v0-65.629h-197.353zM707.491 89.6c0-33.418-27.091-60.509-60.509-60.509v0h-396.567c-30.601 1.284-54.924 26.403-54.924 57.204 0 0.017 0 0.033 0 0.050v-0.003 617.658h512zM358.4 90.996c25.706 0 46.545 20.839 46.545 46.545v0 459.869c0 25.706-20.839 46.545-46.545 46.545s-46.545-20.839-46.545-46.545v0-459.869c0-25.706 20.839-46.545 46.545-46.545v0zM544.582 90.996c25.706 0 46.545 20.839 46.545 46.545v0 459.869c0 25.706-20.839 46.545-46.545 46.545s-46.545-20.839-46.545-46.545v0-459.869c0-25.706 20.839-46.545 46.545-46.545v0z" />
<glyph unicode="&#xe920;" glyph-name="search" d="M1010.502 15.593l-171.753 171.753c66.67 80.892 107.099 185.579 107.099 299.708 0 261.176-211.725 472.902-472.902 472.902s-472.902-211.725-472.902-472.902c0-261.176 211.725-472.902 472.902-472.902 114.129 0 218.816 40.429 300.519 107.748l-0.811-0.648 171.753-171.753c8.436-8.504 20.127-13.768 33.047-13.768s24.611 5.264 33.044 13.765l0.003 0.003c8.504 8.436 13.768 20.127 13.768 33.047s-5.264 24.611-13.765 33.044l-0.003 0.003zM472.902 108.684c-209.563 0.265-379.345 170.21-379.345 379.811 0 209.764 170.047 379.811 379.811 379.811s379.811-170.047 379.811-379.81v0c0.001-0.276 0.001-0.604 0.001-0.931 0-210.021-170.256-380.276-380.276-380.276 0 0 0 0-0.001 0v0z" />
<glyph unicode="&#xe921;" glyph-name="selectionbox" d="M512 960c-282.77 0-512-229.23-512-512s229.23-512 512-512c282.77 0 512 229.23 512 512v0c0 282.77-229.23 512-512 512v0zM512 29.091c-231.357 0-418.909 187.552-418.909 418.909s187.552 418.909 418.909 418.909c231.357 0 418.909-187.552 418.909-418.909v0c0-231.357-187.552-418.909-418.909-418.909v0z" />
<glyph unicode="&#xe922;" glyph-name="selectionbox-check" d="M628.364 594.618l-165.702-173.149-67.025 74.473c-8.522 8.88-20.49 14.397-33.745 14.397-25.817 0-46.746-20.929-46.746-46.746 0-12.561 4.955-23.966 13.016-32.365l-0.015 0.016 134.516-146.153 232.727 242.967c8.478 8.535 13.717 20.296 13.717 33.28 0 26.084-21.146 47.23-47.23 47.23-13.1 0-24.954-5.333-33.51-13.947l-0.003-0.003zM512 960c-282.77 0-512-229.23-512-512s229.23-512 512-512c282.77 0 512 229.23 512 512v0c0 282.77-229.23 512-512 512v0zM512 29.091c-231.357 0-418.909 187.552-418.909 418.909s187.552 418.909 418.909 418.909c231.357 0 418.909-187.552 418.909-418.909v0c0-231.357-187.552-418.909-418.909-418.909v0z" />
<glyph unicode="&#xe923;" glyph-name="selectionbox-checked" d="M512 960c-282.77 0-512-229.23-512-512s229.23-512 512-512c282.77 0 512 229.23 512 512v0c0 282.77-229.23 512-512 512v0zM695.855 529.92l-232.727-242.967-134.516 144.291c-8.084 8.367-13.066 19.776-13.066 32.349 0 25.725 20.854 46.579 46.579 46.579 13.152 0 25.030-5.451 33.5-14.216l0.013-0.013 67.025-74.473 165.702 173.149c8.522 8.88 20.49 14.397 33.745 14.397 25.817 0 46.746-20.929 46.746-46.746 0-12.561-4.955-23.966-13.016-32.365l0.015 0.016z" />
<glyph unicode="&#xe924;" glyph-name="settings" d="M1021.673 528.058c-3.926 17.992-17.848 31.914-35.532 35.783l-0.308 0.057c-2.792 0.311-6.030 0.489-9.309 0.489s-6.517-0.178-9.704-0.523l0.395 0.035h-77.731c-7.377 20.602-14.599 37.346-22.695 53.579l1.284-2.844v9.775c11.636 10.705 22.807 22.342 33.978 33.513l20.945 20.945c5.959 5.607 10.698 12.438 13.826 20.098l0.138 0.382c2.418 5.446 3.826 11.799 3.826 18.482 0 10.591-3.537 20.356-9.495 28.178l0.083-0.114c-2.722 3.814-5.627 7.162-8.818 10.215l-0.026 0.025-95.418 93.091c-9.949 11.348-24.475 18.474-40.665 18.474-2.072 0-4.116-0.117-6.127-0.344l0.247 0.023c-11.2-2.625-20.842-8.184-28.387-15.82l-0.006-0.006-21.876-19.549c-10.705-9.309-20.945-18.618-30.72-28.393-1.155-1.333-2.545-2.426-4.112-3.223l-0.077-0.035c-0.63-0.132-1.353-0.207-2.095-0.207s-1.465 0.075-2.164 0.219l0.069-0.012c-14.511 7.708-31.744 15.108-49.608 21.137l-2.523 0.739c-0.103 0.699-0.162 1.506-0.162 2.327s0.059 1.628 0.173 2.417l-0.011-0.090c0 14.429 0 28.393 0 42.822v35.84c-1.427 10.090-5.228 19.090-10.82 26.693l0.114-0.163c-6.473 14.224-19.497 24.474-35.109 26.962l-0.265 0.035-11.171 0.931h-139.636c-0.392 0.009-0.854 0.014-1.317 0.014-8.067 0-15.773-1.543-22.84-4.35l0.418 0.147c-11.713-4.522-20.937-13.293-25.947-24.376l-0.119-0.293c-2-4.216-3.332-9.122-3.715-14.292l-0.008-0.137c-0.16-1.674-0.251-3.619-0.251-5.585s0.091-3.912 0.269-5.832l-0.018 0.246c0-26.065 0-52.131 0-81.92-20.673-7.432-37.416-14.654-53.661-22.727l2.927 1.316h-8.378c-15.825 16.756-33.513 34.444-53.527 53.993-4.432 4.494-9.484 8.36-15.022 11.462l-0.338 0.174c-6.753 4.037-14.895 6.424-23.595 6.424-4.526 0-8.902-0.646-13.039-1.851l0.329 0.082c-7.674-2.335-14.247-6.35-19.55-11.638l0.001 0.001-5.585-5.12-95.884-95.418c-4.643-4.445-8.655-9.494-11.924-15.034l-0.178-0.326c-3.718-6.768-5.905-14.832-5.905-23.406 0-4.589 0.626-9.031 1.798-13.246l-0.082 0.347c2.496-7.239 6.31-13.452 11.195-18.644l-0.024 0.026c1.613-2.306 3.456-4.296 5.535-6.010l0.051-0.041c15.36-16.291 33.513-34.909 52.131-52.596 0.852-0.912 1.375-2.14 1.375-3.491s-0.523-2.579-1.377-3.494l0.003 0.003c-7.102-13.923-14.486-31.134-20.843-48.835l-1.033-3.296h-1.862c-24.204 0-49.804 0-78.196 0-0.385 0.009-0.838 0.014-1.292 0.014-7.915 0-15.47-1.544-22.38-4.346l0.399 0.143c-11.713-4.522-20.937-13.293-25.947-24.376l-0.119-0.293c-1.833-4.21-3.148-9.093-3.704-14.204l-0.020-0.226c0-2.327 0-6.051 0-11.171 0-15.825 0-31.651 0-46.545v-46.545c0-15.825 0-31.651 0-46.545-0.222-2.509-0.348-5.429-0.348-8.378s0.126-5.869 0.374-8.754l-0.026 0.375c4.087-17.798 17.963-31.519 35.533-35.319l0.307-0.056c2.447-0.365 5.272-0.573 8.145-0.573s5.698 0.208 8.46 0.611l-0.314-0.038h78.662l5.12-3.258c6.346-18.161 13.258-33.526 21.303-48.182l-0.823 1.636c0.983-1.194 1.579-2.738 1.579-4.422s-0.596-3.228-1.588-4.434l0.010 0.012c-15.825-14.429-31.185-30.255-48.873-46.545l-3.724-3.724c-4.664-4.667-8.813-9.852-12.351-15.459l-0.216-0.367c-3.774-6.576-6-14.458-6-22.859 0-5.139 0.833-10.084 2.371-14.706l-0.095 0.329c2.199-7.258 5.885-13.501 10.727-18.642l-0.022 0.023 6.051-6.516 93.091-93.091c4.034-4.063 8.448-7.738 13.188-10.971l0.31-0.2c7.208-4.808 16.070-7.672 25.6-7.672s18.392 2.864 25.771 7.779l-0.171-0.107c5.038 3.47 9.449 7.142 13.502 11.175l19.080 19.080c10.555 11.783 21.497 22.577 33.069 32.668l0.444 0.379h7.447c17.67-4.651 33.153-11.182 47.421-19.559l-0.875 0.475c2.376-1.832 4.27-4.174 5.537-6.868l0.048-0.114c0.557-7.451 0.875-16.139 0.875-24.902s-0.318-17.451-0.942-26.055l0.067 1.153v-25.135c-0.018-0.581-0.028-1.265-0.028-1.951 0-8.49 1.546-16.619 4.373-24.12l-0.156 0.471c5.751-14.658 18.307-25.522 33.673-28.804l0.305-0.055h154.996c0.186-0.002 0.405-0.003 0.625-0.003 13.417 0 25.814 4.367 35.848 11.757l-0.167-0.117c7.788 6.071 13.422 14.581 15.765 24.371l0.060 0.298c1.45 5.722 2.296 12.296 2.327 19.064v0.020c0 13.498 0 26.531 0 46.545v32.116l3.724 5.12c19.512 6.752 35.805 13.825 51.466 21.95l-2.128-1.004h5.585c15.825-16.756 33.513-34.444 53.527-53.993 3.907-3.855 8.166-7.375 12.717-10.501l0.316-0.205c7.258-4.903 16.204-7.827 25.833-7.827s18.574 2.924 25.998 7.932l-0.165-0.105c5.077 3.361 9.497 7.041 13.478 11.15l0.020 0.021 93.091 93.091c3.607 3.673 6.965 7.622 10.029 11.801l0.211 0.301c5.601 7.593 8.965 17.134 8.965 27.462s-3.363 19.869-9.055 27.59l0.090-0.128c-3.008 4.223-6.38 7.891-10.154 11.1l-0.086 0.071c-17.222 16.291-34.909 32.116-53.527 51.2 7.654 14.12 15.043 30.876 21.119 48.248l0.757 2.487 4.655 3.258c22.807 0 46.545 0 67.956 0h6.051c0.202-0.002 0.441-0.003 0.68-0.003 10.124 0 19.81 1.879 28.726 5.308l-0.548-0.185c12.27 5.238 21.655 15.23 25.966 27.601l0.099 0.327c0.311 1.679 0.489 3.612 0.489 5.585s-0.178 3.906-0.519 5.782l0.030-0.196c0.178 2.022 0.28 4.373 0.28 6.749s-0.102 4.728-0.301 7.052l0.021-0.303c0 46.545 0 88.902 0 133.585v0c0.134 1.672 0.211 3.62 0.211 5.585s-0.077 3.914-0.227 5.841l0.016-0.255zM928.582 411.229c-11.636 0-24.204 0-36.305 0-1.017 0.038-2.211 0.060-3.411 0.060-42.414 0-78.488-27.144-91.799-65.007l-0.209-0.682c-5.342-15.594-11.003-28.663-17.535-41.206l0.778 1.642c-6.381-12.28-10.124-26.812-10.124-42.218 0-28.841 13.116-54.619 33.708-71.694l0.154-0.124 21.876-19.549-39.564-39.564-25.6 25.6c-17.113 18.993-41.794 30.881-69.252 30.881-16.99 0-32.917-4.551-46.627-12.501l0.446 0.239c-10.006-5.401-21.987-10.74-34.379-15.217l-1.926-0.608c-39.085-11.63-67.099-47.238-67.099-89.389 0-1.302 0.027-2.598 0.080-3.887l-0.006 0.185v-38.167h-60.044c0.426 6.955 0.669 15.086 0.669 23.273s-0.243 16.318-0.722 24.384l0.053-1.112c-4.29 32.937-22.942 60.797-49.36 77.47l-0.443 0.261c-19.69 12.036-42.447 21.91-66.58 28.434l-1.842 0.424c-8.165 2.365-17.544 3.725-27.241 3.725-24.133 0-46.298-8.425-63.715-22.494l0.193 0.151c-12.097-10.143-23.024-20.333-33.396-31.065l-0.116-0.121-40.96 41.425c7.447 7.913 15.36 15.36 23.273 22.807 20.389 17.191 33.251 42.749 33.251 71.31 0 17.668-4.922 34.187-13.47 48.259l0.233-0.413c-4.941 9.352-9.815 20.575-13.879 32.177l-0.55 1.801c-11.324 39.556-47.164 68.020-89.651 68.020-1.21 0-2.414-0.023-3.612-0.069l0.173 0.005h-40.495v60.509h37.702c0.182-0.001 0.396-0.002 0.611-0.002 42.651 0 78.922 27.318 92.271 65.411l0.209 0.685c5.133 14.985 10.637 27.592 17.013 39.667l-0.722-1.499c6.817 12.842 10.819 28.076 10.819 44.246 0 28.699-12.609 54.453-32.589 72.025l-0.107 0.092c-7.913 7.447-15.825 14.895-23.273 22.807l41.425 41.425 24.669-25.135c17.132-19.237 41.968-31.294 69.621-31.294 16.279 0 31.583 4.179 44.896 11.522l-0.48-0.243c10.906 5.882 23.963 11.692 37.468 16.562l2.095 0.66c38.137 12.217 65.261 47.358 65.261 88.834 0 1.497-0.035 2.986-0.105 4.467l0.008-0.209c0 12.567 0 25.6 0 38.167h60.975c0-12.567 0-24.669 0-37.236-0.054-1.186-0.085-2.577-0.085-3.975 0-41.814 27.568-77.189 65.52-88.94l0.659-0.176c15.097-5.27 27.547-10.613 39.569-16.68l-1.867 0.854c13.228-7.224 28.975-11.473 45.715-11.473 27.132 0 51.657 11.161 69.235 29.142l0.018 0.018c7.447 7.447 15.36 14.429 23.738 21.876l42.822-42.356-25.6-25.6c-18.889-17.104-30.706-41.719-30.706-69.094 0-16.865 4.485-32.683 12.327-46.326l-0.24 0.453c5.363-10.486 11.015-23.543 15.923-36.958l0.834-2.606c11.651-39.052 47.242-67.036 89.37-67.036 0.49 0 0.979 0.004 1.467 0.011l-0.074-0.001h40.96c0-18.618 0-39.564-0.465-60.044zM513.396 651.404c-1.265 0.027-2.756 0.043-4.251 0.043-113.893 0-206.555-90.904-209.388-204.115l-0.005-0.263c-0.065-1.943-0.102-4.226-0.102-6.518 0-114.616 92.679-207.586 207.185-208.056h3.769c56.176 0.326 107.037 22.815 144.336 59.156l-0.045-0.043c38.931 38.137 63.065 91.251 63.065 150.001 0 113.397-89.914 205.794-202.337 209.786l-0.365 0.010zM590.196 358.167c-20.801-19.888-48.955-32.237-79.991-32.581l-0.068-0.001c-32.432 0.183-61.718 13.5-82.838 34.896l-0.012 0.013c-20.202 21.372-32.621 50.285-32.621 82.099 0 1.083 0.014 2.162 0.043 3.238l-0.003-0.159c1.982 62.714 53.296 112.8 116.309 112.8 2.148 0 4.282-0.058 6.401-0.173l-0.295 0.013c61.238-2.525 109.927-52.782 109.927-114.41 0-1.505-0.029-3.004-0.087-4.495l0.007 0.215c-1.101-32.167-14.991-60.888-36.714-81.402l-0.057-0.053z" />
<glyph unicode="&#xe925;" glyph-name="share" horiz-adv-x="981" d="M805.236 287.884c-0.002 0-0.005 0-0.008 0-48.943 0-93.231-19.932-125.189-52.12l-0.010-0.010-333.265 179.665c3.186 12.417 5.049 26.687 5.12 41.381v0.045c-0.238 10.207-1.244 20-2.965 29.545l0.172-1.152 329.076 177.338c32.081-33.458 77.147-54.25 127.069-54.25 97.17 0 175.942 78.772 175.942 175.942s-78.772 175.942-175.942 175.942c-97.17 0-175.942-78.772-175.942-175.942 0-0.073 0-0.147 0-0.22v0.011c0.144-14.098 1.833-27.727 4.904-40.824l-0.249 1.26-325.818-174.545c-32.327 36.763-79.461 59.84-131.985 59.84-96.913 0-175.476-78.563-175.476-175.476s78.563-175.476 175.476-175.476c49.151 0 93.582 20.208 125.438 52.768l0.031 0.032 333.265-179.665c-3.382-12.662-5.409-27.233-5.584-42.249l-0.001-0.108c0-97.17 78.772-175.942 175.942-175.942s175.942 78.772 175.942 175.942c0 97.17-78.772 175.942-175.942 175.942v0zM805.236 866.909c45.757 0 82.851-37.094 82.851-82.851s-37.094-82.851-82.851-82.851c-45.757 0-82.851 37.094-82.851 82.851v0c0 45.757 37.094 82.851 82.851 82.851v0zM175.942 373.993c-0.138-0.001-0.301-0.001-0.464-0.001-46.014 0-83.316 37.302-83.316 83.316s37.302 83.316 83.316 83.316c46.014 0 83.316-37.302 83.316-83.316 0-0.163 0-0.326-0.001-0.489v0.025c0-45.757-37.094-82.851-82.851-82.851v0zM805.236 29.091c-0.554-0.013-1.207-0.021-1.862-0.021-45.757 0-82.851 37.094-82.851 82.851s37.094 82.851 82.851 82.851c45.75 0 82.839-37.082 82.851-82.829v-0.001c0-0.006 0-0.014 0-0.021 0-45.103-36.040-81.788-80.892-82.828l-0.097-0.002z" />
<glyph unicode="&#xe926;" glyph-name="sharepoint" horiz-adv-x="989" d="M887.808 573.44c-5.99 1.368-10.996 4.872-14.284 9.649l-0.052 0.079c-28.054 53.801-70.758 96.669-122.834 124.166l-1.582 0.762c-4.618 2.294-8.106 6.281-9.69 11.13l-0.038 0.134c-9.836 58.852-60.388 103.152-121.286 103.152-12.808 0-25.159-1.96-36.768-5.596l0.871 0.235h-5.632v142.848l-576.512-121.856v-774.144l576-128v148.992c9.509-0.852 20.57-1.338 31.744-1.338s22.235 0.486 33.162 1.437l-1.418-0.1c50.272 8.516 89.515 47.241 98.701 96.536l0.115 0.744c0.427 6.881 4.678 12.675 10.638 15.315l0.114 0.045c53.379 27.149 95.83 69.271 122.66 120.821l0.732 1.547c2.81 6.078 8.497 10.404 15.264 11.254l0.096 0.010c58.452 9.932 102.402 60.198 102.402 120.728 0 0.217-0.001 0.433-0.002 0.649v-0.033c-0.811 60.258-44.337 110.116-101.634 120.714l-0.766 0.118zM493.056 41.984l-409.6 89.6v641.024l409.6 90.112zM721.408 274.944c-23.362 31.757-60.589 52.136-102.576 52.136-14.979 0-29.352-2.594-42.695-7.356l0.887 0.276v262.656c12.476-4.523 26.876-7.138 41.887-7.138 41.712 0 78.707 20.194 101.742 51.339l0.243 0.344c31.066-17.424 56.107-42.301 73.236-72.281l0.492-0.935c-31.818-23.254-52.252-60.441-52.252-102.4s20.435-79.146 51.895-102.151l0.357-0.249c-17.926-30.853-42.673-55.928-72.29-73.724l-0.926-0.516zM200.192 439.808c19.968-10.752 41.472-18.432 61.952-28.672 15.221-7.313 28.334-15.676 40.313-25.384l-0.377 0.296c9.522-6.201 15.73-16.796 15.73-28.84 0-16.539-11.705-30.345-27.283-33.585l-0.223-0.039c-12.104-4.279-26.062-6.751-40.598-6.751-9.932 0-19.594 1.154-28.86 3.336l0.85-0.169c-31.22 5.556-58.767 18.367-81.783 36.639l0.375-0.287c0-27.136 0-51.2 0-74.752-0.165-0.872-0.259-1.876-0.259-2.901 0-7.871 5.551-14.446 12.952-16.024l0.107-0.019c28.874-10.695 62.226-16.883 97.024-16.883s68.15 6.188 99.017 17.523l-1.993-0.64c33.31 12.113 57.613 41.37 62.41 76.821l0.054 0.491c2.146 8.044 3.378 17.28 3.378 26.804 0 41.236-23.103 77.075-57.072 95.281l-0.578 0.283c-25.088 15.36-51.2 25.6-78.336 39.424-13.371 6.146-24.86 13.866-34.908 23.124l0.092-0.084c-6.179 5.468-10.054 13.417-10.054 22.272s3.875 16.804 10.023 22.245l0.031 0.027c6.46 6.357 14.609 11.016 23.713 13.24l0.351 0.072c11.983 3.254 25.741 5.123 39.936 5.123 21.601 0 42.19-4.329 60.949-12.167l-1.045 0.387 27.648-12.8v79.36l-14.336 5.12c-24.305 6.722-52.214 10.586-81.026 10.586-13.671 0-27.138-0.87-40.35-2.557l1.567 0.163c-32.829-2.755-62.257-15.445-85.752-35.017l0.248 0.201c-15.747-12.729-27.065-30.382-31.629-50.594l-0.115-0.606c-2.681-9.092-4.224-19.538-4.224-30.345 0-43.51 25.010-81.178 61.438-99.412l0.642-0.291z" />
<glyph unicode="&#xe927;" glyph-name="sun" d="M977.455 494.545h-106.589c-8.807 66.675-34.564 126.087-72.762 175.373l0.617-0.827 75.404 74.938c8.458 8.458 13.689 20.142 13.689 33.047 0 25.812-20.924 46.736-46.736 46.736-12.906 0-24.59-5.231-33.047-13.689l-75.404-75.404c-48.274 37.647-107.549 63.419-172.259 71.949l-1.821 0.196v106.589c0 25.706-20.839 46.545-46.545 46.545s-46.545-20.839-46.545-46.545v0-106.589c-66.531-8.727-125.806-34.499-174.881-72.746l0.801 0.601-75.404 75.404c-8.458 8.458-20.142 13.689-33.047 13.689-25.812 0-46.736-20.924-46.736-46.736 0-12.906 5.231-24.59 13.689-33.047l75.404-75.404c-37.647-48.274-63.419-107.549-71.949-172.259l-0.196-1.821h-106.589c-25.706 0-46.545-20.839-46.545-46.545s20.839-46.545 46.545-46.545v0h106.589c8.807-66.675 34.564-126.087 72.762-175.373l-0.617 0.827-75.404-74.938c-8.504-8.436-13.768-20.127-13.768-33.047s5.264-24.611 13.765-33.044l0.003-0.003c8.436-8.504 20.127-13.768 33.047-13.768s24.611 5.264 33.044 13.765l75.407 75.407c48.274-37.647 107.549-63.419 172.259-71.949l1.821-0.196v-106.589c0-25.706 20.839-46.545 46.545-46.545s46.545 20.839 46.545 46.545v0 106.589c66.531 8.727 125.806 34.499 174.881 72.746l-0.801-0.601 75.404-75.404c8.409-8.343 19.992-13.499 32.778-13.499 0.095 0 0.189 0 0.284 0.001h-0.015c0.080 0 0.174-0.001 0.269-0.001 12.786 0 24.369 5.156 32.781 13.502l-0.003-0.003c8.504 8.436 13.768 20.127 13.768 33.047s-5.264 24.611-13.765 33.044l-0.003 0.003-75.404 74.938c37.581 48.458 63.339 107.871 71.945 172.7l0.2 1.845h106.589c25.706 0 46.545 20.839 46.545 46.545s-20.839 46.545-46.545 46.545v0zM512 178.502c-148.84 0-269.498 120.658-269.498 269.498s120.658 269.498 269.498 269.498c148.84 0 269.498-120.658 269.498-269.498v0c-0.264-148.733-120.765-269.234-269.473-269.498h-0.025z" />
<glyph unicode="&#xe928;" glyph-name="support" horiz-adv-x="1041" d="M937.083 566.738c-9.116 215.998-186.435 387.656-403.847 387.656-215.406 0-391.456-168.504-403.525-380.888l-0.048-1.068c-73.267-10.765-128.978-72.867-129.662-148.114l-0.001-0.071v-125.388c0-83.414 67.621-151.035 151.035-151.035s151.035 67.621 151.035 151.035v0 125.388c-0.134 56.736-31.629 106.085-78.064 131.644l-0.779 0.393c10.014 162.905 144.581 291.231 309.12 291.231 160.854 0 293.064-122.643 308.221-279.521l0.099-1.261c-60.266-20.473-102.89-76.479-103.065-142.465v-125.409c0.108-56.492 31.411-105.647 77.595-131.171l0.772-0.391c-32.571-33.34-73.383-58.49-119.147-72.164l-1.966-0.504c-17.264 18.825-41.901 30.65-69.303 30.872h-143.951c-52.462 0-94.991-42.529-94.991-94.991s42.529-94.991 94.991-94.991v0h145.336c41.828 0.318 77.196 27.622 89.576 65.347l0.191 0.671c86.94 20.716 158.567 74.814 201.997 147.672l0.808 1.463c69.725 14.416 121.419 75.24 121.588 148.167v125.406c-0.472 66.182-43.439 122.205-102.949 142.176l-1.065 0.31zM207.080 299.34c0-30.953-25.092-56.045-56.045-56.045s-56.045 25.092-56.045 56.045v0 124.913c0 30.953 25.092 56.045 56.045 56.045s56.045-25.092 56.045-56.045v0zM946.108 299.34c0-30.953-25.092-56.045-56.045-56.045s-56.045 25.092-56.045 56.045v124.913c0 30.953 25.092 56.045 56.045 56.045s56.045-25.092 56.045-56.045v0z" />
<glyph unicode="&#xe929;" glyph-name="time" d="M512.219 960c-282.891 0-512.219-229.328-512.219-512.219s229.328-512.219 512.219-512.219c282.891 0 512.219 229.328 512.219 512.219v0c-0.25 282.79-229.429 511.97-512.195 512.219h-0.024zM512.219 23.27c-234.451 0-424.51 190.060-424.51 424.51s190.060 424.51 424.51 424.51c234.451 0 424.51-190.060 424.51-424.51v0c-0.249-234.35-190.16-424.261-424.487-424.51h-0.024zM556.074 469.708v242.953c0 24.22-19.634 43.854-43.854 43.854s-43.854-19.634-43.854-43.854v0-263.126s0 0 0 0c-0.198-1.383-0.311-2.981-0.311-4.605s0.113-3.221 0.332-4.785l-0.021 0.18c-0.183-1.055-0.288-2.269-0.288-3.508s0.105-2.454 0.306-3.635l-0.018 0.127c1.144-2.51 2.462-4.671 4.002-6.652l-0.055 0.074c2.193-2.631 3.508-5.263 5.701-7.455v0l175.418-149.543c7.675-6.793 17.823-10.947 28.94-10.964h0.003c13.148 0.135 24.892 6.036 32.842 15.291l0.049 0.058c6.657 7.648 10.715 17.712 10.715 28.723 0 13.194-5.827 25.028-15.048 33.068l-0.052 0.045z" />
<glyph unicode="&#xe92a;" glyph-name="upload" horiz-adv-x="956" d="M520.433 917.233v0l-42.767 42.767-42.767-42.767-174.080-175.285c-6.796-9.619-10.862-21.587-10.862-34.505 0-33.267 26.968-60.235 60.235-60.235 13.374 0 25.729 4.358 35.724 11.732l-0.165-0.116 71.68 69.873v-455.379c0-33.267 26.968-60.235 60.235-60.235s60.235 26.968 60.235 60.235v0 455.379l71.68-69.873c9.83-7.257 22.185-11.616 35.559-11.616 33.267 0 60.235 26.968 60.235 60.235 0 12.918-4.067 24.886-10.989 34.695l0.127-0.19zM895.096 381.741c-33.267 0-60.235-26.968-60.235-60.235v0-265.035h-714.391v265.035c0 33.267-26.968 60.235-60.235 60.235s-60.235-26.968-60.235-60.235v0-325.271c0-33.267 26.968-60.235 60.235-60.235v0h834.861c33.267 0 60.235 26.968 60.235 60.235v0 325.271c0 33.267-26.968 60.235-60.235 60.235v0z" />
<glyph unicode="&#xe92b;" glyph-name="user" horiz-adv-x="765" d="M470.187 448.853c103.271 37.151 175.787 134.256 175.787 248.298 0 145.391-117.863 263.253-263.253 263.253s-263.253-117.863-263.253-263.253c0-114.042 72.516-211.147 173.952-247.72l1.834-0.578c-170.086-41.416-294.503-192.1-295.253-371.969v-98.217c0-23.564 19.103-42.667 42.667-42.667s42.667 19.103 42.667 42.667v0 98.133c14.597 152.631 142.163 271.045 297.387 271.045s282.79-118.414 297.293-269.837l0.094-1.208v-98.133c0-23.564 19.103-42.667 42.667-42.667s42.667 19.103 42.667 42.667v0 98.133c-0.75 179.954-125.167 330.638-292.624 371.511l-2.629 0.542zM204.8 696.747c0 98.263 79.657 177.92 177.92 177.92s177.92-79.657 177.92-177.92c0-98.263-79.657-177.92-177.92-177.92v0c-98.263 0-177.92 79.657-177.92 177.92v0z" />
<glyph unicode="&#xe92c;" glyph-name="videoplatform" horiz-adv-x="1472" d="M1402.209 960h-1333.067c-38.186 0-69.142-30.956-69.142-69.142v0-886.406c0-38.186 30.956-69.142 69.142-69.142v0h1333.067c38.186 0 69.142 30.956 69.142 69.142v0 886.406c0 38.186-30.956 69.142-69.142 69.142v0zM908.532 420.689l-311.141-176.313c-1.663-0.347-3.574-0.545-5.531-0.545s-3.868 0.198-5.714 0.576l0.183-0.031h-10.371c-3.507 1.23-6.51 3.119-8.994 5.537l0.005-0.005-4.84 6.223v5.531s0 4.149 0 6.223v358.158s0 4.149 0 6.223v5.531l0.691 9.68h33.88l311.833-172.856c9.031-5.715 14.94-15.65 14.94-26.966s-5.909-21.251-14.81-26.889l-0.13-0.077z" />
<glyph unicode="&#xe92d;" glyph-name="visible-false" horiz-adv-x="1045" d="M130.711 273.318c13.912 0.045 26.704 4.798 36.876 12.749l-0.133-0.1c14.473 11.116 23.711 28.429 23.711 47.898 0 13.756-4.611 26.435-12.372 36.576l0.106-0.145c-17 22.521-33.005 47.964-46.797 74.733l-1.391 2.971c34.334 66.259 152.998 256 389.722 256 1.32 0.022 2.877 0.034 4.438 0.034 14.799 0 29.339-1.107 43.543-3.243l-1.599 0.198c2.352-0.323 5.070-0.507 7.831-0.507 33.547 0 60.742 27.195 60.742 60.742 0 30.786-22.903 56.223-52.6 60.201l-0.311 0.034c-18.041 2.26-38.962 3.572-60.181 3.614h-0.055c-367.435-0.602-507.784-340.329-512-354.786l-8.433-22.287 8.433-22.287c21.229-48.984 46.032-91.187 75.233-129.884l-1.144 1.583c10.745-14.236 27.423-23.501 46.288-24.092l0.093-0.002zM1034.24 474.504c-47.738 86.421-108.092 159.645-179.571 220.128l-1.135 0.936 161.431 161.431c11.005 10.918 17.817 26.047 17.817 42.767s-6.813 31.85-17.814 42.763l-0.004 0.004c-10.888 10.825-25.895 17.516-42.466 17.516s-31.578-6.691-42.469-17.519l-902.924-903.526c-11.005-10.918-17.817-26.047-17.817-42.767s6.813-31.85 17.814-42.763l0.004-0.004c10.883-10.801 25.875-17.476 42.425-17.476 0.332 0 0.663 0.003 0.994 0.008l-0.050-0.001c0.103-0.001 0.226-0.001 0.348-0.001 16.547 0 31.536 6.672 42.423 17.473l-0.004-0.004 173.478 174.080c68.034-35.312 148.539-56.021 233.88-56.021 0.577 0 1.153 0.001 1.729 0.003h-0.089c335.511 0 503.567 335.511 510.795 349.967l12.649 26.504zM593.318 432.339c-6.371-26.986-27.226-47.841-53.721-54.114l-0.491-0.098zM523.445 191.398c-51.769 0.129-101.231 9.841-146.76 27.455l2.797-0.952 57.224 60.235c25.145-13.498 54.987-21.502 86.682-21.684h0.057c0.132 0 0.288-0.001 0.444-0.001 106.455 0 192.753 86.298 192.753 192.753 0 31.871-7.735 61.935-21.43 88.418l0.506-1.076 72.885 74.089c54.868-45.925 101.279-99.622 138.134-159.805l1.612-2.83c-42.767-70.475-175.285-256-387.313-256z" />
<glyph unicode="&#xe92e;" glyph-name="visible-true" horiz-adv-x="1421" d="M1406.566 484.045c-9.83 19.661-238.387 475.955-694.682 475.955-501.35 0-692.224-462.029-697.958-481.69l-11.469-30.31 11.469-30.31c8.192-19.661 199.066-481.69 697.139-481.69 456.294 0 684.851 456.294 694.682 475.955l17.203 36.045zM711.885 99.84c-235.463 5.609-437.115 144.82-532.547 344.51l-1.571 3.65c45.875 89.293 208.077 348.16 530.022 348.16 287.539 0 468.582-252.314 526.746-348.16-57.344-95.846-237.568-348.16-525.926-348.16zM708.608 710.963c-145.231 0-262.963-117.733-262.963-262.963s117.733-262.963 262.963-262.963c145.231 0 262.963 117.733 262.963 262.963v0c0 145.231-117.733 262.963-262.963 262.963v0zM708.608 348.877c-54.744 0-99.123 44.379-99.123 99.123s44.379 99.123 99.123 99.123c54.744 0 99.123-44.379 99.123-99.123v0c0-54.744-44.379-99.123-99.123-99.123v0z" />
</font>
</defs>
</svg>
